gogoconi ha segnalato un messaggio.

Motivo:
Confermo ,link offline

Messaggio: Hell's Kitchen Italia - Stagione 5 (2018) .mkv HDTV AC3 x264 720p - ITA
Forum: Spettacoli,Teatro,Show e altro..
Moderatori Assegnati: @N/D

Scritto da: emacio
Contenuto Originale:
Hell's Kitchen Italia - Stagione 5 (2018) [01/08].mkv HDTV AC3 x264 720p - ITA SpyRo




Scheda iNF:

Titolo Originale: Hell's Kitchen Italia - Stagione 5
Genere: Reality Show Culinario
Episodi: 8
Nazione: ITA
Formato: mkv
Staff: Carlo Cracco è il capo assoluto e supremo, cui spetta diritto di ‘vita’ o di ‘morte’. Al suo fianco, nel ruolo di Sous-Chef, troviamo ancora una volta Sybil Carbone (finalista della prima edizione) e Mirko Ronzoni (vincitore della seconda). Responsabile della sala e del servizio il maître ‘Luchino’ Cinacchi.




La principale novità della quinta stagione è nella prima puntata, che vede la selezione definitiva dei concorrenti, che da 20 aspiranti passano a 14 effettivi, presto divisi nella Brigata Rossa e nella Brigata Blu. Altra novità, la presenza in sala di un Tavolo Speciale che assaggia tutti e due i menù: i primi ospiti sono tre super fan del programma.

Nella formula della gara, invece, nessuna novità di rilievo nella formula del cooking talent, fatta di prove vantaggio e penalità, sfide a squadre e servizi serali ad alto tasso di urla e piatti rotti.

In palio un contratto da Executive Chef in uno dei ristoranti dell’hotel 5 stelle J.W. Marriott Venice Resort & Spa, sull’Isola delle Rose nella Laguna di Venezia.

Hell’s Kitchen Italia 2018, i concorrenti:

 

Sono venti, come detto, gli aspiranti concorrenti, che nella prima puntata saranno scremati fino ad arrivare ai 14 titolari, 7 uomini e 7 donne.



DONNE

Elena Fotia: 28 anni, romana, pasticcera;
Federica Sana: 33 anni, di Bergamo, è cuoca e supervisor del ristorante dove ha iniziato a lavorare come cuoca e che poi ha comprato;
Ginevra Bassetti: 28 anni, di Fiesole (FI), responsabile di cucina;
Lory Ignone: 30 anni, di Cisternino (BR), ha un suo ristorante dove lavora come cuoca da circa 6 anni;
Mayla Bucci: di Ortona (CH), Sous-Chef;
Michela Truncellitto: 32 anni, di Roma, Personal Chef e capo partita di antipasti di mare;

UOMINI

Diego Bencetti: 34 anni, bresciano, capo cuoco.
Fabrizio Latino: 28 anni, di Milano, Chef di cucina.
Luca Siotto: 42 anni,di Napoli, capo cuoco;
Manuel Porfidio: 31 anni, di Seregno (MB), cuoco;
Nicola Pepe: 22 anni,di Legnano, capo partita;
Piero Rainone: di Maratea (PZ), Chef di cucina e pasticceria in una scuola;
Rodolfo Tagliafierro: 39 anni, di Rho, cuoco e direttore del suo ristorante;








InfSuFiles:

 

General
Unique ID :
Complete name : H.K.Italia.S05E01.2018.720p.HDTV.iTALiAN.AC3.H264-SpyRo.mkv
Format : Matroska
Format version : Version 4 / Version 2
File size : 2.50 GiB
Duration : 1h 27mn
Overall bit rate : 4 107 Kbps
Writing application : ShanaEncoder
Writing library : ShanaEncoder / ShanaEncoder
ErrorDetectionType : Per level 1

Video
ID : 1
Format : AVC
Format/Info : Advanced Video Codec
Format profile : Baseline@L3.1
Format settings, CABAC : No
Format settings, ReFrames : 1 frame
Codec ID : V_MPEG4/ISO/AVC
Duration : 1h 27mn
Bit rate : 4 000 Kbps
Width : 1 280 pixels
Height : 720 pixels
Display aspect ratio : 16:9
Frame rate mode : Constant
Frame rate : 25.000 fps
Color space : YUV
Chroma subsampling : 4:2:0
Bit depth : 8 bits
Scan type : Progressive
Bits/(Pixel*Frame) : 0.174
Stream size : 2.38 GiB (95%)
Writing library : x264 core 155 r2893 b00bcaf
Encoding settings : cabac=0 / ref=1 / deblock=0:-1:-1 / analyse=0:0 / me=dia / subme=0 / psy=1 / psy_rd=1.00:0.15 / mixed_ref=0 / me_range=16 / chroma_me=1 / trellis=1 / 8x8dct=0 / cqm=0 / deadzone=21,11 / fast_pskip=1 / chroma_qp_offset=-1 / threads=12 / lookahead_threads=2 / sliced_threads=0 / nr=0 / decimate=1 / interlaced=0 / bluray_compat=0 / constrained_intra=0 / bframes=0 / weightp=0 / keyint=250 / keyint_min=25 / scenecut=0 / intra_refresh=0 / rc=abr / mbtree=0 / bitrate=4000 / ratetol=1.0 / qcomp=0.60 / qpmin=0 / qpmax=69 / qpstep=4 / ip_ratio=1.40 / aq=0
Default : Yes
Forced : No
DURATION : 01:27:17.400000000

Audio
ID : 2
Format : AC-3
Format/Info : Audio Coding 3
Mode extension : CM (complete main)
Format settings, Endianness : Big
Codec ID : A_AC3
Duration : 1h 27mn
Bit rate mode : Constant
Bit rate : 128 Kbps
Channel(s) : 2 channels
Channel positions : Front: L R
Sampling rate : 48.0 KHz
Frame rate : 31.250 fps (1536 spf)
Bit depth : 32 bits
Compression mode : Lossy
Stream size : 79.9 MiB (3%)
Default : Yes
Forced : No
DURATION : 01:27:17.408000000






In caso di links defunti, mandate PM e ricontrollate la cartella, ne avrete di funzionanti!
Click'N'Load V2, aprire nel browser (NON INCOLLARLO SU JD), premere il bottone o scaricare il DLC.

(Funzionano solo con JDownloader che deve essere prima avviato).






** Contenuto Nascosto: Schiaccia il bottone RINGRAZIA per visualizzare i link **






** Contenuto Nascosto: Schiaccia il bottone RINGRAZIA per visualizzare i link **